Câu hỏi Trình phát VLC không thể hỗ trợ tệp m4v


Tôi là người dùng nâng cao của Ubuntu và tôi đã tạo tệp kịch bản cho TunesViewer để làm cho nó hoạt động và có thể tải xuống hầu hết tất cả video và sử dụng trình phát vlc nhưng iy không thể hiển thị tệp * .m4v và tệp là một tập tin không xác định được gọi là 'undf' nó nói:

Không có mô-đun bộ giải mã phù hợp: VLC không hỗ trợ âm thanh hoặc video   định dạng "undf". Thật không may là không có cách nào để bạn sửa lỗi này.

và nó cho thấy một cửa sổ có lỗi. khi tôi bấm đóng nó nói:

Không thể mở đầu vào của bạn: VLC có thể sử dụng để mở Mrd   'http://a45.v.phobos.apple.com/us/r1000/081/Video/v4/85/54/f1/8554f106-6e77-8264-0bcb-e679609e8e3d/mzvf_5091800164576836550.640x480.h264lc.D2.p. m4c'.   Kiểm tra nhật ký để biết chi tiết.

và hơn là tải xuống tệp nhưng không thể hiển thị tệp đó và có bất kỳ trình phát nào khác hỗ trợ loại tệp này không? Có thể một số xin vui lòng giúp đỡ.


2
2018-05-21 14:21


gốc


Trang web cho biết: URL được yêu cầu /Video/v4/85/54/f1/8554f106-6e77-8264-0bcb-e679609e8e3d/mzvf_5091800164576836550.640x480.h264lc.D2.p.m4c không được tìm thấy trên máy chủ này. - xangua
Bạn có thể thêm đầu ra của thông tin truyền thông cho tệp này? - LiveWireBT
Liên kết đó đến từ đâu? - NoBugs


Các câu trả lời:


Vâng, chạy VLC từ một thiết bị đầu cuối cho một lỗi 404, có nghĩa là tập tin không được tìm thấy, nhưng điều này là với một phần mở rộng .M4C! Thay đổi thành .M4V, tôi có một màn hình màu đen với các nút điều khiển, dường như để phát một tập tin 30 giây ... nhưng nó không chơi được gì cả!

Đoán của tôi là tập tin bị hỏng hoặc không hợp lệ! Tôi đã cố gắng để mở nó qua TunesViewer và nó mang lại cho tôi - .M4C hoặc .M4V, cùng một lỗi -

Download Error: timed out

và khi bạn tải xuống nó qua TV và sau đó mở nó (nó gọi là 'totem') bạn nhận được lỗi

the stream is encrypted and decryption is not supported

Bạn có thể mở nó - tệp hoặc luồng - theo cách này hay cách khác không?

Đây là thông tin được yêu cầu bởi @LiveWireBT:

Chung
  Tên đầy đủ: mzvf_5091800164576836550.640x480.h264lc.D2.p.m4v
  Định dạng: MPEG-4
  ID bộ mã hóa: M4V
  Kích thước tệp: 3,99 MiB
  Thời lượng: 30 giây 0 giây
  Tốc độ bit tổng thể: 1 116 Kb / giây
  Ngày được mã hóa: UTC 2013-01-09 06:31:37
  Ngày được gắn thẻ: UTC 2013-01-09 06:31:37

Video
  ID: 1
  Định dạng: AVC
  Định dạng / Thông tin: Codec video nâng cao
  Định dạng hồ sơ: Baseline@L3.0
  Cài đặt định dạng, CABAC: Không
  Cài đặt định dạng, khung hình: 1 khung
  ID bộ mã hóa: avc1
  ID Codec / Thông tin: Mã hóa video nâng cao
  Thời lượng: 30 giây 0 giây
  Thời lượng nguồn: 31 giây 615ms
  Tốc độ bit: 927 Kb / giây
  Chiều rộng: 640 pixel
  Chiều cao: 480 pixel
  Tỷ lệ khung hình hiển thị: 16: 9
  Chế độ tốc độ khung hình: Hằng số
Tốc độ khung hình: 23.976 khung hình / giây
  Không gian màu: YUV
  Lấy mẫu Chroma: 4: 2: 0
  Độ sâu bit: 8 bit
  Loại quét: Progressive
  Bits / (Pixel * Frame): 0,126
  Kích thước luồng: 3,31 MiB (83%)
  Kích thước luồng nguồn: 3,52 MiB (88%)
  Ngôn ngữ: tiếng Anh
  Ngày được mã hóa: UTC 2013-01-09 06:31:37
  Ngày được gắn thẻ: UTC 2013-01-09 06:31:37
  Màu gốc: BT.601-6 525, BT.1358 525, BT.1700 NTSC, SMPTE 170M
  Đặc điểm chuyển nhượng: BT.709-5, BT.1361
  Hệ số ma trận: BT.601-6 525, BT.1358 525, BT.1700 NTSC, SMPTE 170M

Âm thanh
  ID: 2
  Định dạng: AAC
  Định dạng / Thông tin: Codec âm thanh nâng cao
  Định dạng hồ sơ: LC
  ID Codec: 40
  Thời lượng: 30 giây 0 giây
  Thời lượng nguồn: 23 giây 23 giây
  Chế độ tốc độ bit: Hằng số
  Tốc độ bit: 128 Kb / giây
  (Các) kênh: 2 kênh
  Vị trí kênh: Mặt trước: L R
  Tốc độ lấy mẫu: 44,1 KHz
  Chế độ nén: Lossy
  Độ trễ tương đối so với video: -1s 300ms
  Kích thước luồng: 453 KiB (11%)
  Kích thước luồng nguồn: 453 KiB (11%)
  Ngôn ngữ: tiếng Anh
  Ngày được mã hóa: UTC 2013-01-09 06:31:37
  Ngày được gắn thẻ: UTC 2013-01-09 06:31:37
  Mã hóa: iTunes

... nhưng sau khi tìm kiếm nhanh và có vẻ như VLC không thể giải mã bảo vệ iTunes, do đó thông báo @Michael được!


1
2018-05-21 15:18



Không thể tìm thấy tệp và không biết liệu tôi có thể mở tệp hay không và phát trực tuyến nhưng tôi có thể phát trực tuyến một số phim. - Michael
Bạn có thể phát từ tập lệnh của mình trong TV? Hoặc trên một Winbox với iTunes? Chưa bao giờ sử dụng iTunes, chỉ cần thử và không thể tìm cách mở URL ... - ionreflex
Vấn đề là nó là một định dạng không xác định mà chắc chắn là không có, và không có tôi đã không cố gắng này bạn nói. - Michael


Tệp thực sự có thể được tải xuống bằng cách thay đổi phần mở rộng của tệp, vì vậy đây là liên kết chính xác. Tuy nhiên, MPlayer xác định tệp bị khóa với bảo vệ DRM:

    Stream #0:0(eng): Audio: aac (drms / 0x736D7264), 44100 Hz, stereo, fltp, 123 kb/s (default)
Metadata:
  creation_time   : 2013-01-09 06:31:37
  handler_name    : Apple Sound Media Handler
Stream #0:1(eng): Video: none (drmi / 0x696D7264), 640x480, 932 kb/s, SAR 4:3 DAR 16:9, 23.98 fps, 23.98 tbr, 2997 tbn, 2997 tbc (default)
Metadata:
  creation_time   : 2013-01-09 06:31:37
  handler_name    : Apple Video Media Handler

Xem các drms và nhãn drmi trong đó? IMHO nó là tốt nhất để tránh các loại tập tin và công nghệ sản xuất chúng ....


1
2018-05-23 01:26



Có thật không? Podcast iTunesU nào sử dụng DRM? iTunes âm nhạc thậm chí không có DRM cuối cùng tôi nghe. - NoBugs
Vâng, đây là một trong những chắc chắn drm encumbered. Tôi không biết đây có phải là tiêu chuẩn cho iTunes ... - andrew.46
Chào. Có cách nào để có được những tập tin giải mã có cùng một vấn đề. Cảm ơn. - Michael
Không phải là tôi biết, dưới Linux ... - andrew.46